Fibromyalgia Syndrome A Practitioner's Guide to Treatment, Second Edition

استعرض الموضوع السابق استعرض الموضوع التالي اذهب الى الأسفل

Fibromyalgia Syndrome A Practitioner's Guide to Treatment, Second Edition

مُساهمة من طرف aRET في الجمعة يناير 13, 2017 11:00 am




Fibromyalgia Syndrome: A Practitioner's Guide to Treatment
DATA-DVD in ISO-Image | MPG + PDF Guidebook | English | 352 x 288 | MPEG Video ~1141 kbps | 25 fps
MPEG Audio ~224 Kbps | 48.0 KHz | 2 channels | 00:46:08 | 563 MB
Genre: eLearning Video / Health, Rehabilitation, Massage
Univ. of Westminster, London, UK. of Westminster, London, UK. Designed to help the practitioner identify FMS, provide a guide to all aspects of the syndrome, present a multidisciplinary view of the problems stemming from the condition, offer treatment options. Designed to help the practitioner identify FMS, provide a guide to all aspects of the syndrome, present a multidisciplinary view of the problems stemming from the condition, offer treatment options. Summarizes the latest research findings and relates them to clinical practice. Summarizes the latest research findings and relates them to clinical practice. For practitioners.

About the Author
Leon Chaitow ND DO is an internationally known and respected osteopathic and naturopathic practitioner and teacher of soft tissue manipulation methods of treatment. He is author of over 60 books, including a series on Advanced Soft Tissue Manipulation (Muscle Energy Techniques, Positional Release Techniques, Modern Neuromuscular Techniques) and also Palpation Skills; Cranial
Manipulation: Theory and Practice; Fibromyalgia Syndrome: A Practitioner's Guide to Treatment, and many more. He is editor of the peer reviewed Journal of Bodywork and Movement Therapies, that offers a multidisciplinary perspective on physical methods of patient care. Leon Chaitow was for many years senior lecturer on the Therapeutic Bodywork degree courses which he helped to design at the School of Integrated Health, University of Westminster, London, where is he now an Honorary Fellow. He continues to teach and practice part-time in London, when not in Corfu, Greece where he focuses on his writing.

Includes PDF workbook: ISBN: 0443072191
الرمز:
GeneralComplete name              : X12.mpgFormat: MPEG-PSFile size                  : 49.6 MiBDuration                    : 4mn 58sOverall bit rate            : 1 393 KbpsVideoID    : 224 (0xE0)Format: MPEG VideoFormat version              : Version 1Format settings, BVOP      : YesFormat settings, Matrix    : DefaultFormat settings, GOP        : M=3, N=15Duration                    : 4mn 58sBit rate                    : 1 141 KbpsMaximum bit rate            : 1 123 KbpsWidth : 352 pixelsHeight: 288 pixelsDisplay aspect ratio        : 4:3Frame rate                  : 25.000 fpsStandard                    : PALColor space                : YUVChroma subsampling          : 4:2:0Bit depth                  : 8 bitsScan type                  : ProgressiveCompression mode            : LossyBits/(Pixel*Frame)          : 0.450Time code of first frame    : 00:00:00:00Time code source            : Group of pictures headerStream size                : 40.6 MiB (82%)AudioID    : 192 (0xC0)Format: MPEG AudioFormat version              : Version 1Format profile              : Layer 2Duration                    : 4mn 58sBit rate mode              : ConstantBit rate                    : 224 KbpsChannel(s)                  : 2 channelsSampling rate              : 48.0 KHzCompression mode            : LossyStream size                : 7.97 MiB (16%)















DOWNLOAD
(Buy premium account for maximum speed and resuming ability)
الرمز:
 
http://nitroflare.com/view/C87003AE58D3B80/fydnn.F.S.A.P.G.t.T.S.E.rar

http://rapidgator.net/file/b27625b4a4f30eb2589a7d27121e2871/fydnn.F.S.A.P.G.t.T.S.E.rar

http://uploaded.net/file/pnsd6o7v/fydnn.F.S.A.P.G.t.T.S.E.rar

aRET

عدد المساهمات : 158666
تاريخ التسجيل : 02/09/2016

معاينة صفحة البيانات الشخصي للعضو

الرجوع الى أعلى الصفحة اذهب الى الأسفل

استعرض الموضوع السابق استعرض الموضوع التالي الرجوع الى أعلى الصفحة

- مواضيع مماثلة

 
صلاحيات هذا المنتدى:
لاتستطيع الرد على المواضيع في هذا المنتدى