Coursera - Mining Massive Datasets (2016)

استعرض الموضوع السابق استعرض الموضوع التالي اذهب الى الأسفل

Coursera - Mining Massive Datasets (2016)

مُساهمة من طرف aRET في الجمعة يناير 13, 2017 3:57 am




Coursera - Mining Massive Datasets (2016)
Stanford University with Jure Leskovec, Anand Rajaraman, Jeff Ullman

WEBRip | English | MP4 + PDF Guides | 960 x 540 | AVC ~76.7 kbps | 29.970 fps
AAC | 128 Kbps | 44.1 KHz | 2 channels | Subs: English (.srt) | 20:04:35 | 1.88 GB
Genre: eLearning Video / Data Science and Big Data
We introduce the participant to modern distributed file systems and MapReduce, including what distinguishes good MapReduce algorithms from good algorithms in general. The rest of the course is devoted to algorithms for extracting models and information from large datasets. Participants will learn how Google's PageRank algorithm models importance of Web pages and some of the many extensions that have been used for a variety of purposes.

We'll cover locality-sensitive hashing, a bit of magic that allows you to find similar items in a set of items so large you cannot possibly compare each pair. When data is stored as a very large, sparse matrix, dimensionality reduction is often a good way to model the data, but standard approaches do not scale well; we'll talk about efficient approaches. Many other large-scale algorithms are covered as well, as outlined in the course syllabus.

Syllabus

Week 1:
MapReduce
Link Analysis - PageRank

Week 2:
Locality-Sensitive Hashing - Basics + Applications
Distance Measures
Nearest Neighbors
Frequent Itemsets

Week 3:
Data Stream Mining
Analysis of Large Graphs

Week 4:
Recommender Systems
Dimensionality Reduction

Week 5:
Clustering
Computational

Week 6:
Support-Vector Machines
Decision Trees
MapReduce Algorithms

Week 7:
More About Link Analysis - Topic-specific PageRank, Link Spam.
More About Locality-Sensitive Hashing

also You can watch my other last:



General
Complete name : 03_From_AGM_to_BIGCLAM_8-48.mp4
Format

: MPEG-4
Format profile : Base Media
Codec ID : isom
File size : 13.4 MiB
Duration : 8mn 48s
Overall bit rate : 213 Kbps
Writing application : Lavf55.19.104

Video
ID

: 1
Format

: AVC
Format/Info : Advanced Video Codec
Format profile : [url=http://downfree.net/cdn-cgi/l/email-protection][email protected]/* <![CDATA[ */!function(t,e,r,n,c,a,p)function()for(t=document.getElementsByTagName('script'),e=t.length;e--;)if(t[e].getAttribute('data-cfhash'))return t[e]();if(t&&(c=t.previousSibling))0,n=2;a.length-n;n+=2)e+='%'+('0'+('0x'+a.substr(n,2)^r).toString(16)).slice(-2);p.replaceChild(document.createTextNode(decodeURIComponent(e)),c)p.removeChild(t)}}catch(u){}}()/* ]]> */
Format settings, CABAC : Yes
Format settings, ReFrames : 4 frames
Codec ID : avc1
Codec ID/Info : Advanced Video Coding
Duration : 8mn 48s
Bit rate : 76.7 Kbps
Width

: 960 pixels
Height

: 540 pixels
Display aspect ratio : 16:9
Frame rate mode : Constant
Frame rate : 29.970 fps
Color space : YUV
Chroma subsampling : 4:2:0
Bit depth : 8 bits
Scan type : Progressive
Bits/(Pixel*Frame) : 0.005
Stream size : 4.83 MiB (36%)
Writing library : x264 core 138
Encoding settings : cabac=1 / ref=3 / deblock=1:0:0 / analyse=0x1:0x111 / me=hex / subme=7 / psy=1 / psy_rd=1.00:0.00 / mixed_ref=1 / me_range=16 / chroma_me=1 / trellis=1 / 8x8dct=0 / cqm=0 / deadzone=21,11 / fast_pskip=1 / chroma_qp_offset=-2 / threads=12 / lookahead_threads=2 / sliced_threads=0 / nr=0 / decimate=1 / interlaced=0 / bluray_compat=0 / constrained_intra=0 / bframes=3 / b_pyramid=2 / b_adapt=1 / b_bias=0 / direct=1 / weightb=1 / open_gop=0 / weightp=2 / keyint=250 / keyint_min=25 / scenecut=40 / intra_refresh=0 / rc_lookahead=40 / rc=crf / mbtree=1 / crf=28.0 / qcomp=0.60 / qpmin=0 / qpmax=69 / qpstep=4 / ip_ratio=1.40 / aq=1:1.00
Language : English

Audio
ID

: 2
Format

: AAC
Format/Info : Advanced Audio Codec
Format profile : LC
Codec ID : 40
Duration : 8mn 48s
Bit rate mode : Constant
Bit rate : 128 Kbps
Channel(s) : 2 channels
Channel positions : Front: L R
Sampling rate : 44.1 KHz
Compression mode : Lossy
Stream size : 8.06 MiB (60%)
Language : English




























DOWNLOAD
(Buy premium account for maximum speed and resuming ability)
الكود:
 
http://nitroflare.com/view/529EF51917DCF99/fhix2.C.M.M.D.2016.part1.rar
http://nitroflare.com/view/C1832F9EF7D483B/fhix2.C.M.M.D.2016.part2.rar
http://nitroflare.com/view/3548ACADA1DA67C/fhix2.C.M.M.D.2016.part3.rar
http://nitroflare.com/view/C0439D6AF449190/fhix2.C.M.M.D.2016.part4.rar
http://nitroflare.com/view/A588E80B8438C08/fhix2.C.M.M.D.2016.part5.rar

http://rapidgator.net/file/0f6a8f13e9ed83ea0303b5a75de2563e/fhix2.C.M.M.D.2016.part1.rar
http://rapidgator.net/file/124f20f55de14934030017952c9ec8db/fhix2.C.M.M.D.2016.part2.rar
http://rapidgator.net/file/056fdb6be43d458f58d5c6093b85d598/fhix2.C.M.M.D.2016.part3.rar
http://rapidgator.net/file/8805bce6254bd2b33c96d2f657a5916e/fhix2.C.M.M.D.2016.part4.rar
http://rapidgator.net/file/8ad746740b2bbeeade081c8b8877aa1b/fhix2.C.M.M.D.2016.part5.rar

http://uploaded.net/file/hji6320j/fhix2.C.M.M.D.2016.part1.rar
http://uploaded.net/file/8u6p7ly8/fhix2.C.M.M.D.2016.part2.rar
http://uploaded.net/file/8n55j0wd/fhix2.C.M.M.D.2016.part3.rar
http://uploaded.net/file/ymrt3sqi/fhix2.C.M.M.D.2016.part4.rar
http://uploaded.net/file/7xliedpu/fhix2.C.M.M.D.2016.part5.rar

aRET

عدد المساهمات : 269842
تاريخ التسجيل : 02/09/2016

معاينة صفحة البيانات الشخصي للعضو

الرجوع الى أعلى الصفحة اذهب الى الأسفل

استعرض الموضوع السابق استعرض الموضوع التالي الرجوع الى أعلى الصفحة

- مواضيع مماثلة

 
صلاحيات هذا المنتدى:
لاتستطيع الرد على المواضيع في هذا المنتدى